Unknown video color space

Don't know how to do something? Having issues running the program? Please post here.

Unknown video color space

Unread postby jriker1 » Tue Apr 14, 2020 11:54 pm

Excuse me if this is already answered but most of what I'm searching for can't be searched in this forum including my entire subject.

That said, I used to be running some encoding tools on Windows 7 and wiped the system and now on Windows 10. Using portable Aegisub and when trying to open a 10 bit HEVC file either by it's own or thru an MP4 I get YUV4MPEG video is not in a supported format. FFmpegSource Unknown video color space. I know I re-encoded the file to an 8-bit HEVC file and that opens thru Aegisub but that one I stripped out the black bars so hard to gauge where the subtitles should go when output to the screen.

File details:

Code: Select all
General
Count                                    : 331
Count of stream of this kind             : 1
Kind of stream                           : General
Kind of stream                           : General
Stream identifier                        : 0
Inform                                   : MPEG-4 (Base Media): 44.8 GiB, 1 h 58 min
Count of video streams                   : 1
Video_Format_List                        : HEVC
Video_Format_WithHint_List               : HEVC
Codecs Video                             : HEVC
Complete name                            : D:\Conversion\2 - Working\Serenity\Serenity.mp4
Folder name                              : D:\Conversion\2 - Working\Serenity
File name extension                      : Serenity.mp4
File name                                : Serenity
File extension                           : mp4
Format                                   : MPEG-4
Format                                   : MPEG-4
Format/Extensions usually used           : braw mov mp4 m4v m4a m4b m4p m4r 3ga 3gpa 3gpp 3gp 3gpp2 3g2 k3g jpm jpx mqv ismv isma ismt f4a f4b f4v
Commercial name                          : MPEG-4
Format profile                           : Base Media
Internet media type                      : video/mp4
Codec ID                                 : iso4
Codec ID                                 : iso4 (iso4/hvc1)
Codec ID/Url                             : http://www.apple.com/quicktime/download/standalone.html
CodecID_Compatible                       : iso4/hvc1
File size                                : 48132052667
File size                                : 44.8 GiB
File size                                : 45 GiB
File size                                : 45 GiB
File size                                : 44.8 GiB
File size                                : 44.83 GiB
Duration                                 : 7135878
Duration                                 : 1 h 58 min
Duration                                 : 1 h 58 min 55 s 878 ms
Duration                                 : 1 h 58 min
Duration                                 : 01:58:55.878
Duration                                 : 01:58:57;16
Duration                                 : 01:58:55.878 (01:58:57;16)
Overall bit rate                         : 53960623
Overall bit rate                         : 54.0 Mb/s
Frame rate                               : 23.976
Frame rate                               : 23.976 FPS
Frame count                              : 171090
Stream size                              : 2195046
Stream size                              : 2.09 MiB (0%)
Stream size                              : 2 MiB
Stream size                              : 2.1 MiB
Stream size                              : 2.09 MiB
Stream size                              : 2.093 MiB
Stream size                              : 2.09 MiB (0%)
Proportion of this stream                : 0.00005
HeaderSize                               : 2194955
DataSize                                 : 48129857637
FooterSize                               : 75
IsStreamable                             : Yes
Encoded date                             : UTC 2020-04-11 18:51:08
Tagged date                              : UTC 2020-04-11 18:51:08
File creation date                       : UTC 2020-04-11 18:59:30.290
File creation date (local)               : 2020-04-11 13:59:30.290
File last modification date              : UTC 2020-04-11 19:04:31.653
File last modification date (local)      : 2020-04-11 14:04:31.653

Video
Count                                    : 378
Count of stream of this kind             : 1
Kind of stream                           : Video
Kind of stream                           : Video
Stream identifier                        : 0
StreamOrder                              : 0
Inform                                   : 54.0 Mb/s, 3840*2160 (16:9), at 23.976 (24000/1001) FPS, HEVC (Main 10@L5.1@High), HDR10
ID                                       : 1
ID                                       : 1
Format                                   : HEVC
Format                                   : HEVC
Format/Info                              : High Efficiency Video Coding
Format/Url                               : http://www.itu.int
Commercial name                          : HEVC
Format profile                           : Main 10@L5.1@High
HDR format                               : SMPTE ST 2086
HDR format                               : SMPTE ST 2086, HDR10 compatible
HDR_Format_Commercial                    : HDR10
HDR_Format_Compatibility                 : HDR10
Internet media type                      : video/H265
Codec ID                                 : hvc1
Codec ID/Info                            : High Efficiency Video Coding
Codec ID/Url                             : http://www.itu.int/
Duration                                 : 7135878
Duration                                 : 1 h 58 min
Duration                                 : 1 h 58 min 55 s 878 ms
Duration                                 : 1 h 58 min
Duration                                 : 01:58:55.878
Duration                                 : 01:58:57;16
Duration                                 : 01:58:55.878 (01:58:57;16)
Bit rate                                 : 53958102
Bit rate                                 : 54.0 Mb/s
Maximum bit rate                         : 103147128
Maximum bit rate                         : 103 Mb/s
Width                                    : 3840
Width                                    : 3 840 pixels
Height                                   : 2160
Height                                   : 2 160 pixels
Sampled_Width                            : 3840
Sampled_Height                           : 2160
Pixel aspect ratio                       : 1.000
Display aspect ratio                     : 1.778
Display aspect ratio                     : 16:9
Rotation                                 : 0.000
Frame rate mode                          : CFR
Frame rate mode                          : Constant
Frame rate                               : 23.976
Frame rate                               : 23.976 (24000/1001) FPS
FrameRate_Num                            : 24000
FrameRate_Den                            : 1001
Frame count                              : 171090
Color space                              : YUV
Chroma subsampling                       : 4:2:0
Chroma subsampling                       : 4:2:0 (Type 2)
ChromaSubsampling_Position               : Type 2
Bit depth                                : 10
Bit depth                                : 10 bits
Bits/(Pixel*Frame)                       : 0.271
Stream size                              : 48129857621
Stream size                              : 44.8 GiB (100%)
Stream size                              : 45 GiB
Stream size                              : 45 GiB
Stream size                              : 44.8 GiB
Stream size                              : 44.82 GiB
Stream size                              : 44.8 GiB (100%)
Proportion of this stream                : 0.99995
Writing library                          : ATEME Titan File 3.7.9 (4.7.9.0)
Writing library                          : ATEME Titan File 3.7.9 (4.7.9.0)
Encoded_Library_Name                     : ATEME Titan File
Encoded_Library_Version                  : 3.7.9 (4.7.9.0)
Encoded date                             : UTC 2020-04-11 18:51:08
Tagged date                              : UTC 2020-04-11 18:59:30
colour_description_present               : Yes
colour_description_present_Source        : Stream
Color range                              : Limited
colour_range_Source                      : Stream
Color primaries                          : BT.2020
colour_primaries_Source                  : Stream
Transfer characteristics                 : PQ
transfer_characteristics_Source          : Stream
Matrix coefficients                      : BT.2020 non-constant
matrix_coefficients_Source               : Stream
Mastering display color primaries        : Display P3
MasteringDisplay_ColorPrimaries_Source   : Stream
Mastering display luminance              : min: 0.0050 cd/m2, max: 1000 cd/m2
MasteringDisplay_Luminance_Source        : Stream
Maximum Content Light Level              : 996 cd/m2
MaxCLL_Source                            : Stream
Maximum Frame-Average Light Level        : 263 cd/m2
MaxFALL_Source                           : Stream
Codec configuration box                  : hvcC



Thoughts?
jriker1
Comic Sans MS
Comic Sans MS
 
Posts: 4
Joined: Tue Jul 14, 2015 2:29 pm

Re: Unknown video color space

Unread postby jriker1 » Wed Apr 15, 2020 1:16 am

Note I've installed AVISynth+ again and some other things. I can open the files with AVISynth thru VirtualDub 64, but now when I try and use the same AVS file says

YUV4MPEG: video is not in a supported format
FFMpegSource: file not found
jriker1
Comic Sans MS
Comic Sans MS
 
Posts: 4
Joined: Tue Jul 14, 2015 2:29 pm


Return to Aegisub Help

Who is online

Users browsing this forum: veronicajy69 and 4 guests

cron